188bongda.com

Chia sẻ Phim Need For Speed 2014 - Vua Tốc Độ (Tay Đua Thần Tốc) - Downphimhay.com

Thảo luận trong 'Video' bắt đầu bởi vuong43i4, 29/4/14.

  1. Lượt xem: 621

    vuong43i4 PageRank 1 Member

    Tham gia ngày:
    17/1/14
    Bài viết:
    173
    Đã được thích:
    6
    [​IMG]
    Dựa trên tựa game cùng bối cảnh tương tự như game đua xe tốc độ Need for Speed làm say lòng những người yêu thích xe hơi. Bộ phim Need For Speed 2014 do DreamWorks Studio sản xuất và dự kiến công chiếu vào 14/3/2014 với quyết tâm lật đổ tượng đài phim đua xe Fast and Furious. Trong phim không khó để nhận ra quyết tâm đó của nhà sản xuất khi đầu tư hàng loạt "quỷ tốc độ" triệu đô nhưBugatti Veyron, Koenigsegg, Saleen S7, Lamborghini Sesto Elemento, Mc Laren P1 cùng xe cơ bắp Mỹ Ford Mustang được phát triển bởi Ford Racing trang bị động vơ V8 tăng áp cho công suất lên đến 900 mã lực...
    Suy nghĩ của bạn như thế nào khi xem phim?

    Aaron Paul, Chillie Mo, Dominic Cooper
    Ratings: 7.3/10 from 11,119 users

    [​IMG]

    Code:
    Video
    ID : 2
    Format : AVC
    Format/Info : Advanced Video Codec
    Format profile : Baseline@L3.0
    Format settings, CABAC : No
    Format settings, ReFrames : 1 frame
    Format settings, GOP : M=1, N=25
    Muxing mode : Container profile=Baseline@4.1
    Codec ID : avc1
    Codec ID/Info : Advanced Video Coding
    Duration : 2h 1mn
    Bit rate : 1 996 Kbps
    Width : 1 280 pixels
    Height : 720 pixels
    Display aspect ratio : 16:9
    Frame rate mode : Constant
    Frame rate : 25.000 fps
    Color space : YUV
    Chroma subsampling : 4:2:0
    Bit depth : 8 bits
    Scan type : Progressive
    Bits/(Pixel*Frame) : 0.087
    Stream size : 1.70 GiB (94%)
    Writing library : Pó
    Language : English

    Audio
    ID : 1
    Format : AAC
    Format/Info : Advanced Audio Codec
    Format profile : LC
    Codec ID : 40
    Duration : 2h 1mn
    Bit rate mode : Constant
    Bit rate : 128 Kbps
    Channel(s) : 2 channels
    Channel positions : Front: L R
    Sampling rate : 48.0 KHz
    Compression mode : Lossy
    Stream size : 112 MiB (6%)
    Language : English
    [​IMG]
    [​IMG]
    [​IMG]
    [​IMG]
    [​IMG]
    [​IMG]
    [​IMG]
    [​IMG]
    [​IMG]


    DOWNLOAD PHIM (HDCAM)

    1 Link ~ 1,8GB
    [​IMG]
    FSHARE

    http://www.fshare.vn/folder/TMTJ7S928T
    [​IMG]
    TENLUA
    ALL VESIONS 720p & 1080p & ReMux
    http://tenlua.vn/need-for-speed-2014...37e627e60e6f07
    [​IMG]
    SUB
    http://subscene.com/subtitles/need-for-speed
     
    #1
  2. uhvui99 PageRank 0 Member

    Tham gia ngày:
    4/5/14
    Bài viết:
    5
    Đã được thích:
    0
    up thêm nhiều phim hot cập nhật tại topphimviet.com:)
     
    #2

Chia sẻ trang này